#TITLE:Hypnotica;
#SUBTITLE:;
#ARTIST:Naoki;
#TITLETRANSLIT:;
#SUBTITLETRANSLIT:;
#ARTISTTRANSLIT:;
#CREDIT:;
#BANNER:Hypnotica-Banner.png;
#BACKGROUND:Hypnotica-bg.png;
#LYRICSPATH:;
#CDTITLE:;
#MUSIC:Hypnotica.mp3;
#MUSICLENGTH:82.763;
#OFFSET:-0.040;
#SAMPLESTART:42.565;
#SAMPLELENGTH:12.000;
#SELECTABLE:YES;
#BPMS:0.000=135.600,16.000=67.000,16.500=33.500,17.000=67.000,18.000=135.600,21.000=67.000,21.500=33.500,22.000=67.000,23.000=135.600,26.000=67.000,26.500=33.500,27.000=67.000,29.000=135.100,78.000=67.000,78.500=35.000,79.000=67.000,80.000=135.600,83.000=67.000,83.500=35.000,84.000=67.000,86.000=135.000;
#STOPS:;
#BGCHANGES:;
#FIRSTBEAT:16.000;

#LASTBEAT:166.000;

#SONGFILENAME:Songs/ERICth The 3rd/Hypnotica/Hypnotica.sm;

#HASMUSIC:1;

#HASBANNER:1;


//---------------dance-single - MANIAC----------------
#NOTES:
     dance-single:
     MANIAC:
     hard:
     9:
     0.490,0.450,0.423,0.000,0.079,249.000,35.000,0.000,0.000,0.000:




0000
0000
0000
0000
,
0000
0000
0000
0000
,
0000
0000
0000
0000
,
0000
0000
0000
0000
,
0010
0000
0100
0001
1000
0000
0010
0000
0100
0000
0000
0000
0011
0000
0000
0000
,
1001
0000
0000
0000
0100
0000
0001
1000
0100
0000
0010
0000
0100
0000
0000
0000
,
1100
0000
0000
0000
1001
0000
0000
0000
0001
0000
1000
0010
0100
0000
0001
0000
,
1000
0100
0010
0000
0001
1000
0100
0000
,
1000
0001
0100
0000
0010
0100
0010
0001
,
1000
0000
1001
0000
0100
1000
0010
0000
,
0100
0001
0010
0000
0100
1000
0001
0100
,
1001
0000
0110
0000
1000
0001
0010
0100
,
0010
0001
1000
0100
1000
0010
0001
0010
,
0100
0010
1000
0100
1000
0100
0010
0001
,
1000
0100
0010
0001
0010
0100
1000
0001
,
0110
1001
1010
0101
,
1001
0110
1001
0011
,
1001
1010
1001
0101
,
1001
1100
0110
1001
,
0110
0000
0000
0000
0110
0000
0000
0000
0010
0000
0100
0001
1000
0000
0010
0000
,
0100
0000
0000
0000
0011
0000
0000
0000
1001
0000
0000
0000
0100
0000
0001
1000
,
0100
0010
0100
0000
1100
0000
0000
0001
,
1000
0000
0100
0010
0100
0000
1000
0000
,
0001
0000
0100
0010
0001
0000
1000
0000
,
0010
0000
0100
0001
0010
0000
0100
1000
,
0010
0100
0010
1000
0001
0100
0010
1000
,
0001
0010
0100
1000
0100
0100
0010
0001
,
1000
0100
0010
0001
0001
1000
0010
0100
,
0001
1000
0100
0010
0100
1000
0001
0100
,
0010
1000
0001
0001
0001
0000
1001
0000
,
1100
0000
0101
0000
1000
0010
0100
0001
,
0010
1000
0010
0001
0100
0001
0001
0000
,
1001
0000
0110
0000
1000
1000
0001
0010
,
0001
0100
0010
0100
0001
1000
0100
0000
,
0001
0001
0001
0001
0001
0010
0100
1000
,
0010
0001
0010
0100
0010
0010
0001
1000
,
0100
1000
0010
0001
0110
1000
0100
0010
,
1000
0000
0001
0000
0110
0000
0000
0000
0000
0000
0000
0000
0010
0000
0100
1000
,
0100
0000
0010
0000
0001
0100
0001
0000
0000
0000
0000
0000
0010
0000
0100
1000
,
0100
0000
0010
0000
0100
0001
0100
0000
0000
0000
0000
0000
0010
0000
1000
0100
,
1000
0000
0010
0000
0001
0100
0001
0000
0000
0000
0000
0000
0010
0000
1000
0100
,
1000
0000
0010
0000
0001
1000
0001
0000
0000
0000
0000
0000
0000
0000
0000
0000;

//---------------dance-single - ANOTHER----------------
#NOTES:
     dance-single:
     ANOTHER:
     medium:
     6:
     0.031,0.054,0.000,0.000,0.018,18.000,0.000,0.000,0.000,0.000:




0000
0000
0000
0000
,
0000
0000
0000
0000
,
0000
0000
0000
0000
,
0000
0000
0000
0000
,
0001
0000
1000
0010
0100
0000
0010
0000
0001
0000
0000
0000
0000
0000
0000
0000
,
0000
0000
0000
0000
1000
0000
0001
0010
0100
0000
1000
0000
0001
0000
0000
0000
,
0000
0000
0000
0000
0000
0000
0000
0000
0100
0000
0100
0100
0010
0000
0000
0000
,
0000
0010
0010
0000;

//---------------dance-single - Beginner----------------
#NOTES:
     dance-single:
     Beginner:
     beginner:
     1:
     0.142,0.150,0.060,0.000,0.000,77.000,5.000,0.000,0.000,0.000:

0000
0000
0000
0000
,
0000
0000
0000
0000
,
0000
0000
0000
0000
,
0000
0000
0000
0000
,
1000
0000
0000
0100
,
0100
0100
0000
0000
,
0001
0001
0001
0000
,
0000
0010
0000
1000
,
0000
0100
0000
0100
,
0000
0000
0010
0000
,
0001
0000
0100
0000
,
1000
1000
1000
0000
,
0100
0000
0010
0000
,
0001
0000
0010
0000
,
0100
0000
1000
0000
,
0001
0001
0001
0000
,
0001
0000
0001
0000
,
0000
0000
1000
0000
,
1000
0000
1000
0000
,
0000
0000
1000
0000
,
0000
0001
0001
0001
,
0000
0000
1001
0000
,
0010
0000
0100
0000
,
0100
0000
0000
0010
,
0000
0100
0000
0100
,
0000
0001
0001
0001
,
0000
1000
0000
1000
,
0000
0000
0000
0001
,
0000
1000
0000
1000
,
0000
0010
0010
0010
,
0000
0100
0000
1000
,
0000
0100
0100
0100
,
0000
0010
0000
0001
,
0000
0010
0010
0010
,
0000
0001
0000
0100
,
0000
0001
0001
0001
,
0000
1000
0000
0010
,
0000
1000
1000
1000
,
0000
0000
0110
0000
,
0000
0000
0110
0000
,
0000
0000
0110
0000
,
0000
0000
1001
0000;
